背景音乐
动漫∨
子猫のパヤパヤ
子猫

LEVEL 2 升华
UID:838049
精华:0
主题:6
帖子:552
威望:1169
天使币:6911
宣传度:103
天然°:248
腹黑°:228
精灵:9
金鼠:0
阅读权限:30
注册时间:2013-10-26
状态: 不在线

  • TA的每日心情
    开心

    签到天数: 503天[LV.Master]伴坛终老

  • 子猫のパヤパヤ 发表于 2019-7-21 10:57:21 |显示全部楼层
    本帖最后由 子猫のパヤパヤ 于 2020-3-1 15:30 编辑

    哔哩哔哩2019年BML-VR邀请了C社的6位歌姬出场
    身为全员厨,自然要cut出来单独看~



    源是直播抓取源,无水印,不要乱传
    视频稍微进行了一些降噪处理,音频稍微动了一下,没太大作用,就是写出来让你们有点心理暗示(
    葱包商业互吹那段没声音,因为你聋了(不是),因为本身直播出问题就没有
    因为看不惯自带的字幕,所以自己做了一遍,翻译摘抄自网络
    日文歌曲为双语,格式为SUP外挂字幕,不需要可以改个名就不自动加载了
    视频长度为一小时13分钟


    录播版文件信息

    General
    Complete name                            : H:\******\BML-VR_MIKU之后部分\BML-VR_MIKU part-音频修复.mp4
    Format                                   : MPEG-4
    Format profile                           : Base Media
    Codec ID                                 : isom (isom)
    File size                                : 2.66 GiB
    Duration                                 : 1 h 13 min
    Overall bit rate mode                    : Variable
    Overall bit rate                         : 5 144 kb/s
    Encoded date                             : UTC 2020-02-29 01:11:23
    Tagged date                              : UTC 2020-02-29 01:11:23

    Video
    ID                                       : 1
    Format                                   : AVC
    Format/Info                              : Advanced Video Codec
    Format profile                           : [email protected]
    Format settings, CABAC                   : Yes
    Format settings, ReFrames                : 4 frames
    Codec ID                                 : avc1
    Codec ID/Info                            : Advanced Video Coding
    Duration                                 : 1 h 13 min
    Bit rate                                 : 4 702 kb/s
    Maximum bit rate                         : 22.1 Mb/s
    Width                                    : 1 920 pixels
    Height                                   : 1 080 pixels
    Display aspect ratio                     : 16:9
    Frame rate mode                          : Constant
    Frame rate                               : 50.000 FPS
    Color space                              : YUV
    Chroma subsampling                       : 4:2:0
    Bit depth                                : 8 bits
    Scan type                                : Progressive
    Bits/(Pixel*Frame)                       : 0.045
    Stream size                              : 2.43 GiB (91%)
    Writing library                          : x264 core 152 r2851+45 9658d1a 7mod [[email protected] X86_64]
    Encoding settings                        : cabac=1 / ref=3 / deblock=1:-1:-1 / analyse=0x3:0x113 / me=hex / subme=7 / psy=1 / fade_compensate=0.00 / psy_rd=1.00:0.15 / mixed_ref=1 / me_range=16 / chroma_me=1 / trellis=1 / 8x8dct=1 / cqm=0 / deadzone=21,11 / fast_pskip=1 / chroma_qp_offset=-3 / threads=6 / lookahead_threads=1 / sliced_threads=0 / nr=0 / decimate=1 / interlaced=0 / bluray_compat=0 / constrained_intra=0 / fgo=0 / bframes=3 / b_pyramid=2 / b_adapt=1 / b_bias=0 / direct=1 / weightb=1 / open_gop=1 / weightp=2 / keyint=960 / keyint_min=2 / scenecut=40 / intra_refresh=0 / rc_lookahead=40 / rc=crf / mbtree=1 / crf=21.0000 / qcomp=0.60 / qpmin=0:0:0 / qpmax=69:69:69 / qpstep=4 / ip_ratio=1.40 / aq=1:1.00 / aq-sensitivity=10.00 / aq-factor=1.00:1.00:1.00 / aq2=0 / aq3=0
    Encoded date                             : UTC 2019-07-20 09:33:18
    Tagged date                              : UTC 2020-02-29 01:13:32

    Audio
    ID                                       : 2
    Format                                   : AAC
    Format/Info                              : Advanced Audio Codec
    Format profile                           : LC
    Codec ID                                 : 40
    Duration                                 : 1 h 13 min
    Bit rate mode                            : Variable
    Bit rate                                 : 436 kb/s
    Maximum bit rate                         : 461 kb/s
    Channel(s)                               : 2 channels
    Channel positions                        : Front: L R
    Sampling rate                            : 48.0 kHz
    Frame rate                               : 46.875 FPS (1024 spf)
    Compression mode                         : Lossy
    Stream size                              : 230 MiB (8%)
    Language                                 : Japanese
    Encoded date                             : UTC 2020-02-29 01:06:23
    Tagged date                              : UTC 2020-02-29 01:13:32



    发了B站专栏,秒过然后被锁定,服了

    ------------------------------------------------------------------
    2020/3/1更新录播版本
    ------------------------------------------------------------------
    录播带有水印及字幕
    字幕在日语歌时只有日文,所以顺路做了中文字幕
    B站弹幕也下了作为字幕文件,可以选择看弹幕XD

    另外,直播版本音频有问题,现在通过录播的音频修复了,可以选择MP3版本外挂音频到之前的视频,也可以下载混流好的视频
    文件名写的很清楚了,不懂的话可以回复问我


    直播版视频信息

    General
    Complete name                            : H:\****\BML-VR_MIKU之后部分\BML-VR-MIKU part-录播版.mp4
    Format                                   : MPEG-4
    Format profile                           : Base Media
    Codec ID                                 : isom (isom)
    File size                                : 2.83 GiB
    Duration                                 : 1 h 10 min
    Overall bit rate mode                    : Variable
    Overall bit rate                         : 5 714 kb/s
    Encoded date                             : UTC 2020-03-01 00:28:33
    Tagged date                              : UTC 2020-03-01 00:28:33

    Video
    ID                                       : 1
    Format                                   : AVC
    Format/Info                              : Advanced Video Codec
    Format profile                           : High [email protected]
    Format settings, CABAC                   : Yes
    Format settings, ReFrames                : 4 frames
    Codec ID                                 : avc1
    Codec ID/Info                            : Advanced Video Coding
    Duration                                 : 1 h 10 min
    Bit rate                                 : 5 267 kb/s
    Maximum bit rate                         : 23.9 Mb/s
    Width                                    : 1 920 pixels
    Height                                   : 1 080 pixels
    Display aspect ratio                     : 16:9
    Frame rate mode                          : Constant
    Frame rate                               : 50.000 FPS
    Color space                              : YUV
    Chroma subsampling                       : 4:2:0
    Bit depth                                : 10 bits
    Scan type                                : Progressive
    Bits/(Pixel*Frame)                       : 0.051
    Stream size                              : 2.60 GiB (92%)
    Writing library                          : x264 core 152 r2851+45 9658d1a 7mod [[email protected] X86_64]
    Encoding settings                        : cabac=1 / ref=3 / deblock=1:-3:-3 / analyse=0x3:0x113 / me=hex / subme=7 / psy=1 / fade_compensate=0.00 / psy_rd=1.00:0.15 / mixed_ref=1 / me_range=16 / chroma_me=1 / trellis=1 / 8x8dct=1 / cqm=0 / deadzone=21,11 / fast_pskip=1 / chroma_qp_offset=-3 / threads=6 / lookahead_threads=1 / sliced_threads=0 / nr=0 / decimate=1 / interlaced=0 / bluray_compat=0 / constrained_intra=0 / fgo=0 / bframes=3 / b_pyramid=2 / b_adapt=1 / b_bias=0 / direct=1 / weightb=1 / open_gop=0 / weightp=2 / keyint=960 / keyint_min=2 / scenecut=40 / intra_refresh=0 / rc_lookahead=40 / rc=crf / mbtree=1 / crf=21.0000 / qcomp=0.60 / qpmin=0:0:0 / qpmax=81:81:81 / qpstep=4 / ip_ratio=1.40 / aq=1:1.00 / aq-sensitivity=10.00 / aq-factor=1.00:1.00:1.00 / aq2=0 / aq3=0
    Encoded date                             : UTC 2020-02-29 21:54:14
    Tagged date                              : UTC 2020-03-01 00:29:54

    Audio
    ID                                       : 2
    Format                                   : AAC
    Format/Info                              : Advanced Audio Codec
    Format profile                           : LC
    Codec ID                                 : 40
    Duration                                 : 1 h 10 min
    Source duration                          : 1 h 10 min
    Bit rate mode                            : Variable
    Nominal bit rate                         : 441 kb/s
    Maximum bit rate                         : 463 kb/s
    Channel(s)                               : 2 channels
    Channel positions                        : Front: L R
    Sampling rate                            : 48.0 kHz
    Frame rate                               : 46.875 FPS (1024 spf)
    Compression mode                         : Lossy
    Source stream size                       : 223 MiB (8%)
    Language                                 : Japanese
    Encoded date                             : UTC 2020-03-01 00:20:32
    Tagged date                              : UTC 2020-03-01 00:29:54



    官方回播地址
    https://www.bilibili.com/video/av92188887

    下载地址

    链接:https://pan.baidu.com/s/1UKJwnTNS3Ds4gFHXjrrpSg

    提取码:gn9w

    我也不收费了,开心就行
    附件: 你需要登录才可以下载或查看附件。没有帐号?注册(You must sign in before downloading or check this attachment.)(添付ファイルをダウンロード、或いは見るために、まずログインしてください。)
    已有 1 人评分威望 天使币 天然 腹黑 收起 理由
    I_Shinji + 38 + 75 + 10 + 10

    总评分: 威望 + 38  天使币 + 75  天然 + 10  腹黑 + 10   查看全部评分

    MikuCmL
    日向Hinata

    梦幻天使
    UID:1668542
    精华:0
    主题:0
    帖子:399
    威望:655
    天使币:2500
    宣传度:50
    天然°:10
    腹黑°:0
    精灵:0
    金鼠:0
    阅读权限:130
    注册时间:2017-8-7
    状态: 不在线

  • TA的每日心情
    奋斗

    签到天数: 336天[LV.Master]伴坛终老

  • MikuCmL 发表于 2019-10-21 00:42:23 |显示全部楼层
    官方还没出回播,等不及了

    使用道具 举报

    子猫のパヤパヤ
    子猫

    LEVEL 2 升华
    UID:838049
    精华:0
    主题:6
    帖子:552
    威望:1169
    天使币:6911
    宣传度:103
    天然°:248
    腹黑°:228
    精灵:9
    金鼠:0
    阅读权限:30
    注册时间:2013-10-26
    状态: 不在线

  • TA的每日心情
    开心

    签到天数: 503天[LV.Master]伴坛终老

  • 子猫のパヤパヤ 发表于 2020-3-1 15:31:53 |显示全部楼层
    升级
    官方回播出了,所以更新一下回播版本的cut

    使用道具 举报

    您需要登录后才可以回帖 登录 | 注册

    加天使同城QQ群,有威望奖励~

    Archiver|手机版|WAP| 天使动漫论坛   

    声明:本站所有内容资源均来自网络&网友分享,仅供学习试用。如侵犯您的权益请告知,将会第一时间删除。广告联系我的邮箱

    GMT+8, 2020-4-3 15:29 , Processed in 0.114006 second(s), 24 queries , Gzip On, Memcache On.

    Powered by Discuz! TSDM SP

    © 2010-2014 Style by [email protected]

    回顶部