背景音乐
动漫∨
子猫のパヤパヤ
子猫

LEVEL 2 升华
UID:838049
精华:0
主题:6
帖子:552
威望:1169
天使币:6911
宣传度:103
天然°:248
腹黑°:228
精灵:9
金鼠:0
阅读权限:30
注册时间:2013-10-26
状态: 不在线

  • TA的每日心情
    开心

    签到天数: 503天[LV.Master]伴坛终老

  • 子猫のパヤパヤ 发表于 2019-9-3 18:08:02 |显示全部楼层
    本帖最后由 子猫のパヤパヤ 于 2019-11-19 19:41 编辑

    自压
    使用直播源加上降噪滤镜压制
    感觉是比录播的稍微好一点,然后小了一半


    原版是60fps,但是经过仔细对比,发现有一半是重复帧,因此直接砍掉,加上10bit编码,所以小了

    General
    Complete name                            : E:\VOCALOID\演唱会\Magical Mirai 2019[WEBRip][1080P30fps][10bit][AVC AAC].mp4
    Format                                   : MPEG-4
    Format profile                           : Base Media
    Codec ID                                 : isom (isom/avc1/iso6)
    File size                                : 2.94 GiB
    Duration                                 : 2 h 6 min
    Overall bit rate mode                    : Variable
    Overall bit rate                         : 3 335 kb/s
    Encoded date                             : UTC 2019-09-02 21:30:20
    Tagged date                              : UTC 2019-09-02 21:30:20

    Video
    ID                                       : 1
    Format                                   : AVC
    Format/Info                              : Advanced Video Codec
    Format profile                           : High [email protected]
    Format settings                          : CABAC / 4 Ref Frames
    Format settings, CABAC                   : Yes
    Format settings, ReFrames                : 4 frames
    Codec ID                                 : avc1
    Codec ID/Info                            : Advanced Video Coding
    Duration                                 : 2 h 6 min
    Bit rate                                 : 3 011 kb/s
    Maximum bit rate                         : 13.0 Mb/s
    Width                                    : 1 920 pixels
    Height                                   : 1 080 pixels
    Display aspect ratio                     : 16:9
    Frame rate mode                          : Constant
    Frame rate                               : 30.000 FPS
    Color space                              : YUV
    Chroma subsampling                       : 4:2:0
    Bit depth                                : 10 bits
    Scan type                                : Progressive
    Bits/(Pixel*Frame)                       : 0.048
    Stream size                              : 2.65 GiB (90%)
    Writing library                          : x264 core 152 r2851+45 9658d1a 7mod [[email protected] X86_64]
    Encoding settings                        : cabac=1 / ref=3 / deblock=1:-3:-3 / analyse=0x3:0x113 / me=hex / subme=7 / psy=1 / fade_compensate=0.00 / psy_rd=1.00:0.15 / mixed_ref=1 / me_range=16 / chroma_me=1 / trellis=1 / 8x8dct=1 / cqm=0 / deadzone=21,11 / fast_pskip=1 / chroma_qp_offset=-3 / threads=18 / lookahead_threads=3 / sliced_threads=0 / nr=0 / decimate=1 / interlaced=0 / bluray_compat=0 / constrained_intra=0 / fgo=0 / bframes=3 / b_pyramid=2 / b_adapt=1 / b_bias=0 / direct=1 / weightb=1 / open_gop=1 / weightp=2 / keyint=300 / keyint_min=1 / scenecut=40 / intra_refresh=0 / rc_lookahead=40 / rc=crf / mbtree=1 / crf=22.0000 / qcomp=0.60 / qpmin=0:0:0 / qpmax=81:81:81 / qpstep=4 / ip_ratio=1.40 / aq=1:1.00 / aq-sensitivity=10.00 / aq-factor=1.00:1.00:1.00 / aq2=0 / aq3=0
    Encoded date                             : UTC 2019-09-02 21:30:20
    Tagged date                              : UTC 2019-09-02 21:32:03
    Codec configuration box                  : avcC

    Audio
    ID                                       : 2
    Format                                   : AAC LC
    Format/Info                              : Advanced Audio Codec Low Complexity
    Codec ID                                 : mp4a-40-2
    Duration                                 : 2 h 6 min
    Bit rate mode                            : Variable
    Bit rate                                 : 320 kb/s
    Maximum bit rate                         : 328 kb/s
    Channel(s)                               : 2 channels
    Channel layout                           : L R
    Sampling rate                            : 48.0 kHz
    Frame rate                               : 46.875 FPS (1024 SPF)
    Compression mode                         : Lossy
    Stream size                              : 289 MiB (10%)
    Language                                 : English
    Encoded date                             : UTC 2019-09-01 13:24:57
    Tagged date                              : UTC 2019-09-02 21:32:03



    下载地址

    链接:https://pan.baidu.com/s/1PvqHTRQbMkXElO0t6jM0jQ
    提取码:dpv8

    日常不收费XD

    注意:因为是自己从直播源cut出来的,可能无法与网络上的字幕文件匹配,造成不便请谅解。


    -----------------------2019.11.19更新--------------------------------
    拿V次元内部字幕调轴适配了本视频

    下载地址
    https://pan.baidu.com/s/1GdhncfgfVRkvAFmWF5j4aQ

    (应该问题不大X
    已有 1 人评分威望 天使币 宣传 天然 腹黑 精灵 收起 理由
    I_Shinji + 120 + 240 + 30 + 66 + 66 + 2

    总评分: 威望 + 120  天使币 + 240  宣传 + 30  天然 + 66  腹黑 + 66  精灵 + 2   查看全部评分

    mikifuns01
    mikifuns

    版主
    UID:1894954
    头衔:无情机器人
    精华:0
    主题:551
    帖子:1546
    威望:12732
    天使币:30490
    宣传度:240
    天然°:12881
    腹黑°:12901
    精灵:65
    金鼠:0
    阅读权限:150
    注册时间:2019-9-22
    状态: 不在线

  • TA的每日心情
    无聊

    签到天数: 147天[LV.7]常住居民III

  • mikifuns01 发表于 2019-9-22 10:13:27 |显示全部楼层
    感謝分享!下載看看什麼效果
    Announcement
    根据《规范资源大区打包分享的公告》,自2020.03.06起所有压缩包资源均采用新压缩标准,请下载Winrar解压。


    22/7正片放送终了!一直以来感谢应援。今后22/7也请多多关照。(不去补个番吗?戳上面)
    新番更新进度查看

    使用道具 举报

    您需要登录后才可以回帖 登录 | 注册

    加天使同城QQ群,有威望奖励~

    Archiver|手机版|WAP| 天使动漫论坛   

    声明:本站所有内容资源均来自网络&网友分享,仅供学习试用。如侵犯您的权益请告知,将会第一时间删除。广告联系我的邮箱

    GMT+8, 2020-4-3 14:51 , Processed in 0.176010 second(s), 20 queries , Gzip On, Memcache On.

    Powered by Discuz! TSDM SP

    © 2010-2014 Style by [email protected]

    回顶部