背景音乐
动漫∨
子猫のパヤパヤ
子猫

LEVEL 2 升华
UID:838049
精华:0
主题:6
帖子:555
威望:1172
天使币:6945
宣传度:103
天然°:248
腹黑°:228
精灵:9
金鼠:0
阅读权限:30
注册时间:2013-10-26
状态: 不在线

  • TA的每日心情
    开心

    签到天数: 506天[LV.Master]伴坛终老

  • 子猫のパヤパヤ 发表于 2019-11-27 19:53:12 |显示全部楼层
    本帖最后由 子猫のパヤパヤ 于 2019-12-20 21:01 编辑

    因为有三个版本,不太确定怎么写标题了,版主看如果错了帮忙改改,谢谢

    内嵌特效字幕有两个版本
    1、(相对来说)收藏版:AVC(H.264)10bit 25fps 【3.97GB】
    2、适合移动设备硬解播放:HEVC(H.265)8bit 25fps 【3.63GB】
    还有个外挂双语字幕 【49.5MB】
    适配录播源
    温馨提示:B站官方cc外挂字幕已经出了

    压制参数
    AVC是very slower -crf20 加上降噪滤镜
    HEVC是全部默认 -crf20 其他和AVC一样(X265不会用= =)


    General
    Complete name                            : C:\Users\koneko\Videos\MIKU WITH YOU 2019 IN GUANGZHOU [WebRip][1920x1080p][AVC_YUV420p10_25fps][Effect Subtitles].mp4
    Format                                   : MPEG-4
    Format profile                           : Base Media
    Codec ID                                 : isom (isom/avc1/iso6)
    File size                                : 3.97 GiB
    Duration                                 : 1 h 52 min
    Overall bit rate mode                    : Variable
    Overall bit rate                         : 5 058 kb/s
    Encoded date                             : UTC 2019-11-27 05:10:53
    Tagged date                              : UTC 2019-11-27 05:10:53

    Video
    ID                                       : 1
    Format                                   : AVC
    Format/Info                              : Advanced Video Codec
    Format profile                           : High [email protected]
    Format settings                          : CABAC / 16 Ref Frames
    Format settings, CABAC                   : Yes
    Format settings, ReFrames                : 16 frames
    Codec ID                                 : avc1
    Codec ID/Info                            : Advanced Video Coding
    Duration                                 : 1 h 52 min
    Bit rate                                 : 4 612 kb/s
    Maximum bit rate                         : 13.9 Mb/s
    Width                                    : 1 920 pixels
    Height                                   : 1 080 pixels
    Display aspect ratio                     : 16:9
    Frame rate mode                          : Constant
    Frame rate                               : 25.000 FPS
    Color space                              : YUV
    Chroma subsampling                       : 4:2:0
    Bit depth                                : 10 bits
    Scan type                                : Progressive
    Bits/(Pixel*Frame)                       : 0.089
    Stream size                              : 3.62 GiB (91%)
    Writing library                          : x264 core 152 r2851+45 9658d1a 7mod [[email protected] X86_64]
    Encoding settings                        : cabac=1 / ref=16 / deblock=1:2:2 / analyse=0x3:0x133 / me=umh / subme=10 / psy=1 / fade_compensate=0.00 / psy_rd=1.00:0.15 / mixed_ref=1 / me_range=24 / chroma_me=1 / trellis=2 / 8x8dct=1 / cqm=0 / deadzone=21,11 / fast_pskip=1 / chroma_qp_offset=-3 / threads=18 / lookahead_threads=3 / sliced_threads=0 / nr=0 / decimate=1 / interlaced=0 / bluray_compat=0 / constrained_intra=0 / fgo=0 / bframes=8 / b_pyramid=2 / b_adapt=2 / b_bias=0 / direct=3 / weightb=1 / open_gop=1 / weightp=2 / keyint=480 / keyint_min=1 / scenecut=40 / intra_refresh=0 / rc_lookahead=60 / rc=crf / mbtree=1 / crf=20.0000 / qcomp=0.60 / qpmin=0:0:0 / qpmax=81:81:81 / qpstep=4 / ip_ratio=1.40 / aq=1:1.00 / aq-sensitivity=10.00 / aq-factor=1.00:1.00:1.00 / aq2=0 / aq3=0
    Encoded date                             : UTC 2019-11-27 05:10:53
    Tagged date                              : UTC 2019-11-27 05:11:23
    Codec configuration box                  : avcC

    Audio
    ID                                       : 2
    Format                                   : AAC LC
    Format/Info                              : Advanced Audio Codec Low Complexity
    Codec ID                                 : mp4a-40-2
    Duration                                 : 1 h 52 min
    Source duration                          : 1 h 52 min
    Bit rate mode                            : Variable
    Bit rate                                 : 442 kb/s
    Maximum bit rate                         : 468 kb/s
    Channel(s)                               : 2 channels
    Channel layout                           : L R
    Sampling rate                            : 48.0 kHz
    Frame rate                               : 46.875 FPS (1024 SPF)
    Compression mode                         : Lossy
    Stream size                              : 356 MiB (9%)
    Source stream size                       : 356 MiB (9%)
    Language                                 : Japanese
    Encoded date                             : UTC 2019-11-27 05:05:10
    Tagged date                              : UTC 2019-11-27 05:11:23





    General
    Complete name                            : C:\Users\koneko\Videos\MIKU WITH YOU 2019 IN GUANGZHOU[WebRip][1920x1080p][HEVC_8bit_25fps][Effect Subtitles].mp4
    Format                                   : MPEG-4
    Format profile                           : Base Media
    Codec ID                                 : isom (isom)
    File size                                : 3.64 GiB
    Duration                                 : 1 h 52 min
    Overall bit rate mode                    : Variable
    Overall bit rate                         : 4 631 kb/s
    Encoded date                             : UTC 2019-11-27 05:14:29
    Tagged date                              : UTC 2019-11-27 05:14:29

    Video
    ID                                       : 1
    Format                                   : HEVC
    Format/Info                              : High Efficiency Video Coding
    Format profile                           : [email protected]@Main
    Codec ID                                 : hvc1
    Codec ID/Info                            : High Efficiency Video Coding
    Duration                                 : 1 h 52 min
    Bit rate                                 : 4 184 kb/s
    Maximum bit rate                         : 12.4 Mb/s
    Width                                    : 1 920 pixels
    Height                                   : 1 080 pixels
    Display aspect ratio                     : 16:9
    Frame rate mode                          : Constant
    Frame rate                               : 25.000 FPS
    Color space                              : YUV
    Chroma subsampling                       : 4:2:0
    Bit depth                                : 8 bits
    Bits/(Pixel*Frame)                       : 0.081
    Stream size                              : 3.29 GiB (90%)
    Writing library                          : x265 3.0_Au+4-dcbec33bfb0f:[Windows][GCC 8.2.1][64 bit] 8bit+10bit+12bit
    Encoding settings                        : cpuid=1111039 / frame-threads=3 / numa-pools=12 / wpp / no-pmode / no-pme / no-psnr / no-ssim / log-level=2 / input-csp=1 / input-res=1920x1080 / interlace=0 / total-frames=168632 / level-idc=0 / high-tier=1 / uhd-bd=0 / ref=3 / no-allow-non-conformance / no-repeat-headers / annexb / no-aud / no-hrd / info / hash=0 / no-temporal-layers / open-gop / min-keyint=25 / keyint=250 / gop-lookahead=0 / bframes=4 / b-adapt=2 / b-pyramid / bframe-bias=0 / rc-lookahead=20 / lookahead-slices=6 / scenecut=40 / radl=0 / no-splice / no-intra-refresh / ctu=64 / min-cu-size=8 / no-rect / no-amp / max-tu-size=32 / tu-inter-depth=1 / tu-intra-depth=1 / limit-tu=0 / rdoq-level=0 / dynamic-rd=0.00 / no-ssim-rd / signhide / no-tskip / nr-intra=0 / nr-inter=0 / no-constrained-intra / strong-intra-smoothing / max-merge=2 / limit-refs=3 / no-limit-modes / me=1 / subme=2 / merange=57 / temporal-mvp / weightp / no-weightb / no-analyze-src-pics / deblock=0:0 / sao / no-sao-non-deblock / rd=3 / no-early-skip / rskip / no-fast-intra / no-tskip-fast / no-cu-lossless / no-b-intra / no-splitrd-skip / rdpenalty=0 / psy-rd=2.00 / psy-rdoq=0.00 / no-rd-refine / no-lossless / cbqpoffs=0 / crqpoffs=0 / rc=crf / crf=20.0 / qcomp=0.60 / qpstep=4 / stats-write=0 / stats-read=0 / ipratio=1.40 / pbratio=1.30 / aq-mode=2 / aq-strength=1.00 / cutree / zone-count=0 / no-strict-cbr / qg-size=32 / no-rc-grain / qpmax=69 / qpmin=0 / no-const-vbv / sar=1 / overscan=0 / videoformat=5 / range=0 / colorprim=2 / transfer=2 / colormatrix=2 / chromaloc=0 / display-window=0 / max-cll=0,0 / min-luma=0 / max-luma=255 / log2-max-poc-lsb=8 / vui-timing-info / vui-hrd-info / slices=1 / no-opt-qp-pps / no-opt-ref-list-length-pps / no-multi-pass-opt-rps / scenecut-bias=0.05 / no-opt-cu-delta-qp / no-aq-motion / no-hdr / no-hdr-opt / no-dhdr10-opt / no-idr-recovery-sei / analysis-reuse-level=5 / scale-factor=0 / refine-intra=0 / refine-inter=0 / refine-mv=0 / refine-ctu-distortion=0 / no-limit-sao / ctu-info=0 / no-lowpass-dct / refi
    ne-analysis-type=0 / copy-pic=1 / max-ausize-factor=1.0 / no-dynamic-refine / no-single-sei / no-hevc-aq / qp-adaptation-range=1.00
    Encoded date                             : UTC 2019-11-27 04:50:44
    Tagged date                              : UTC 2019-11-27 05:14:38
    Codec configuration box                  : hvcC

    Audio
    ID                                       : 2
    Format                                   : AAC LC
    Format/Info                              : Advanced Audio Codec Low Complexity
    Codec ID                                 : mp4a-40-2
    Duration                                 : 1 h 52 min
    Source duration                          : 1 h 52 min
    Bit rate mode                            : Variable
    Bit rate                                 : 442 kb/s
    Maximum bit rate                         : 468 kb/s
    Channel(s)                               : 2 channels
    Channel layout                           : L R
    Sampling rate                            : 48.0 kHz
    Frame rate                               : 46.875 FPS (1024 SPF)
    Compression mode                         : Lossy
    Stream size                              : 356 MiB (10%)
    Source stream size                       : 356 MiB (10%)
    Language                                 : Japanese
    Encoded date                             : UTC 2019-11-27 05:05:10
    Tagged date                              : UTC 2019-11-27 05:14:38



    预览图


    下载地址
    https://pan.baidu.com/s/1YxzEtedV-1GOokPYYbaOIQ

    没打压缩包耶,没问题吧

    自制证明

    应该可以证明吧X

    油管在线→https://www.youtube.com/watch?v=32qKJ69Z8ZM
    已有 1 人评分威望 天使币 宣传 天然 腹黑 精灵 收起 理由
    I_Shinji + 110 + 220 + 20 + 66 + 66 + 3

    总评分: 威望 + 110  天使币 + 220  宣传 + 20  天然 + 66  腹黑 + 66  精灵 + 3   查看全部评分

    k5790
    k5790

    LEVEL 3 POWER
    UID:1101286
    精华:0
    主题:1
    帖子:1292
    威望:1330
    天使币:10594
    宣传度:1
    天然°:0
    腹黑°:0
    精灵:0
    金鼠:0
    阅读权限:30
    注册时间:2014-10-14
    状态: 不在线

  • TA的每日心情
    开心

    签到天数: 1270天[LV.Master]伴坛终老

  • k5790 发表于 2019-11-29 16:01:51 来自手机 |显示全部楼层
    厉害了,正好找资源呢

    使用道具 举报

    億千万的AI

    LEVEL 1 断罪
    UID:1906859
    精华:0
    主题:0
    帖子:131
    威望:129
    天使币:830
    宣传度:0
    天然°:5
    腹黑°:5
    精灵:0
    金鼠:0
    阅读权限:15
    注册时间:2019-11-6
    状态: 不在线

  • TA的每日心情
    难过

    签到天数: 71天[LV.6]常住居民II

  • 億千万的AI 发表于 2019-12-1 17:15:05 |显示全部楼层
    升级
    感谢楼主分享

    使用道具 举报

    夜月風

    LEVEL 1 断罪
    UID:1848881
    精华:0
    主题:0
    帖子:90
    威望:89
    天使币:1110
    宣传度:0
    天然°:0
    腹黑°:0
    精灵:0
    金鼠:0
    阅读权限:12
    注册时间:2019-3-10
    状态: 不在线

  • TA的每日心情
    开心

    签到天数: 89天[LV.6]常住居民II

  • 感谢分享

    使用道具 举报

    chenke233

    LEVEL 1 断罪
    UID:1912651
    精华:0
    主题:3
    帖子:142
    威望:560
    天使币:930
    宣传度:0
    天然°:135
    腹黑°:135
    精灵:0
    金鼠:7
    阅读权限:20
    注册时间:2019-12-4
    状态: 不在线

  • TA的每日心情
    开心

    签到天数: 95天[LV.6]常住居民II

  • chenke233 发表于 2019-12-16 23:01:21 |显示全部楼层
    感谢楼主

    使用道具 举报

    您需要登录后才可以回帖 登录 | 注册

    加天使同城QQ群,有威望奖励~

    Archiver|手机版|WAP| 天使动漫论坛   

    声明:本站所有内容资源均来自网络&网友分享,仅供学习试用。如侵犯您的权益请告知,将会第一时间删除。广告联系我的邮箱

    GMT+8, 2020-4-7 01:34 , Processed in 0.130007 second(s), 32 queries , Gzip On, Memcache On.

    Powered by Discuz! TSDM SP

    © 2010-2014 Style by [email protected]

    回顶部